<svg xmlns="http://www.w3.org/2000/svg">
<defs>
<font
       id="FontID0"
       horiz-adv-x="635"
       font-variant="normal"
       font-style="normal"
       font-weight="400,700"
       horiz-origin-x="0"
       horiz-origin-y="0"
       vert-origin-x="45"
       vert-origin-y="90"
       vert-adv-y="90"
       style="font-style:normal;font-variant:normal"><font-face
         font-family="Corbel"
         id="font-face7" /><missing-glyph
         id="missing-glyph9"><path
           d="M0 0z"
           id="path11" /></missing-glyph><glyph
         unicode="D"
         horiz-adv-x="670"
         id="glyph13"><path
           d="M612.004 329.498c0,-38.1635 -4.67407,-73.9948 -14.1668,-107.494 -9.3385,-33.4991 -23.6691,-63.6733 -42.6738,-90.5035 -18.995,-26.8301 -42.828,-49.9981 -71.335,-69.5039 -28.3239,-19.4962 -61.6591,-34.6652 -99.6588,-45.3336 -21.838,-6.15821 -45.5071,-10.495 -70.8338,-13.0007 -25.3363,-2.49605 -52.8314,-3.66216 -82.5045,-3.66216l-147.835 0 0 653.001 149.339 0c29.6635,0 57.1682,-1.16611 82.4949,-3.67179 25.3363,-2.49605 49.0054,-6.65934 70.67,-13.0007 38.1635,-10.6588 71.335,-25.664 99.8323,-44.8325 28.4974,-19.1589 52.1665,-41.8257 70.8338,-68.0005 18.6674,-26.329 32.6703,-55.6648 41.9992,-88.3254 9.16503,-32.8341 13.8391,-68.0005 13.8391,-105.672zm-79.0062 0c0,62.6711 -13.8295,113.498 -41.498,152.5 -27.6686,39.002 -67.3355,66.6705 -119.001,82.8322 -19.8335,6.34131 -41.8353,10.5046 -66.1694,12.8368 -24.4979,2.16838 -51.993,3.33449 -82.4949,3.33449l-60.8303 0 0 -509.001 60.8303 0c30.5019,0 57.997,1.16611 82.4949,3.33449 24.3341,2.33222 46.3359,6.66898 66.1694,12.8368 51.6653,16.1617 91.3323,44.659 119.001,85.1644 27.6686,40.6596 41.498,92.6622 41.498,156.162z"
           id="path15" /></glyph><glyph
         unicode="R"
         horiz-adv-x="628"
         id="glyph17"><path
           d="M561.001 456.834c0,-45.4974 -12.669,-83.9952 -37.8392,-115.829 -25.1572,-31.6661 -64.1587,-55.1703 -116.991,-70.4997l0 -1.83384 195.834 -268.671 -144.008 0 -177.831 253.006 -82.1614 0 0 -253.006 -120.001 0 0 653.003 198.494 0c33.0092,0 63.5001,-1.83384 91.8342,-5.66942 28.3342,-3.66769 52.497,-9.3371 72.6693,-16.8275 38.3299,-14.5029 67.9943,-36.3411 88.8381,-65.011 20.8309,-28.8249 31.1624,-64.9981 31.1624,-108.662zm-304.173 -103.832c27.3398,0 50.5082,1.1623 69.5052,3.66769 18.9971,2.49248 34.8301,6.16016 47.8349,11.0031 23.9949,8.98842 40.6674,21.4895 49.9916,37.3226 9.16922,15.6652 13.8442,33.8357 13.8442,54.3438 0,17.499 -3.66769,33.1642 -11.0031,46.6597 -7.33537,13.4955 -19.6686,23.9949 -37.1676,31.834 -11.3388,5.33364 -25.6609,9.00133 -42.837,11.5067 -17.1632,2.49248 -38.4978,3.65477 -63.8358,3.65477l-85.1575 0 0 -199.992 58.825 0z"
           id="path19" /></glyph><glyph
         unicode="c"
         horiz-adv-x="438"
         id="glyph21"><path
           d="M272.002 476.003c22.4934,0 43.9941,-2.33222 64.5021,-7.00628 20.4984,-4.66443 37.9997,-11.1599 52.658,-19.66l0 -62.3338c-20.4984,7.66162 -39.3296,13.4922 -56.6574,17.3278 -17.1736,3.83563 -34.8387,5.66671 -52.6676,5.66671 -19.0047,0 -37.672,-3.16102 -56.1659,-9.32886 -18.5035,-6.16784 -35.1663,-16.3351 -49.8342,-30.5019 -14.6679,-14.1668 -26.5024,-32.8341 -35.3398,-56.1659 -9.0012,-23.168 -13.5018,-52.1665 -13.5018,-86.6678 0,-24.999 3.33449,-48.167 10.0035,-69.3304 6.66898,-21.173 16.6724,-39.5031 29.8369,-54.9998 13.1645,-15.3329 29.6635,-27.5047 49.4969,-36.0048 19.8335,-8.66389 42.8376,-13.0007 68.8389,-13.0007 18.995,0 37.9997,2.00455 57.1586,6.00401 19.1685,3.99946 37.9997,9.66617 56.1659,17.0001l0 -62.6711c-5.49323,-3.33449 -12.8272,-6.49551 -21.6645,-9.83 -9.0012,-3.17066 -18.8312,-6.00401 -29.6635,-8.50006 -10.6684,-2.33222 -22.0019,-4.33676 -34.1641,-5.83054 -12.008,-1.50341 -24.0064,-2.16838 -36.1686,-2.16838 -31.1669,0 -60.6665,4.66443 -88.4989,14.1668 -27.8324,9.32886 -52.1665,23.8329 -73.0022,43.3291 -20.8357,19.6696 -37.3347,44.3314 -49.3331,74.3321 -11.9984,29.8369 -18.0024,65.3406 -18.0024,106.337 0,30.5019 3.17066,57.997 9.50233,82.4949 6.33168,24.3341 14.9956,45.8348 26.1651,64.3383 10.9961,18.5035 23.8329,34.3375 38.6647,47.3286 14.8317,13.0007 30.6657,23.6691 47.3382,32.0053 16.8266,8.33622 34.1641,14.3306 51.993,18.0024 18.0024,3.82599 35.3398,5.66671 52.3399,5.66671z"
           id="path23" /></glyph><glyph
         unicode="t"
         horiz-adv-x="347"
         id="glyph25"><path
           d="M318.502 -0.828804c-6.50515,-2.50569 -16.499,-5.00173 -29.8369,-7.33395 -13.3283,-2.16838 -29.1623,-3.50796 -47.8297,-3.83563 -24.3341,0 -45.4975,2.99719 -63.4999,9.0012 -18.0024,5.99437 -32.8341,14.6679 -44.8325,25.8278 -11.8345,11.3334 -20.8357,24.8352 -26.6663,40.833 -5.84018,16.0075 -8.83736,33.6726 -8.83736,53.1687l0 282.169 -89.3277 0 0 64.9936 89.3277 0 0 127.009 75.9994 0 0 -127.009 138.67 0 0 -64.9936 -138.67 0 0 -270.335c0,-10.6684 1.50341,-20.6623 4.66443,-29.8369 3.00682,-9.0012 8.00856,-17.0001 14.6679,-23.6595 6.66898,-6.66898 15.169,-11.8345 25.6736,-15.5063 10.3311,-3.83563 22.8307,-5.66671 37.4986,-5.66671 10.1673,0 20.8261,0.838441 31.9957,2.50569 11.1696,1.49377 21.5007,3.66216 31.003,6.33168l0 -63.6637z"
           id="path27" /></glyph><glyph
         unicode="L"
         horiz-adv-x="520"
         id="glyph29"><path
           d="M163.005 653.001l0 -581.001 318.829 0 0 -71.9999 -398.838 0 0 653.001 80.0085 0z"
           id="path31" /></glyph><glyph
         unicode="F"
         horiz-adv-x="504"
         id="glyph33"><path
           d="M163.005 0l-80.0085 0 0 653.001 390 0 0 -71.9999 -309.992 0 0 -210.998 274.826 0 0 -71.9999 -274.826 0 0 -298.003z"
           id="path35" /></glyph><glyph
         unicode="e"
         horiz-adv-x="497"
         id="glyph37"><path
           d="M253.499 410.999c-17.6653,0 -33.8318,-3.50012 -48.999,-10.3329 -14.9997,-6.8328 -28.1684,-15.999 -39.3331,-27.8335 -11.1674,-11.6671 -20.3336,-25.5001 -27.3339,-41.3344 -6.8328,-15.6641 -11.1674,-32.4976 -12.8338,-50.4979l238 0c0,18.3324 -2.33341,35.3334 -7.16768,51.0002 -4.83157,15.8316 -11.8318,29.6646 -21.1655,41.3317 -9.16621,11.8345 -20.5011,21.0007 -34.1667,27.6661 -13.5008,6.66805 -29.1677,10.0007 -47.0005,10.0007zm39.5006 -356.999c25.0005,0 47.8323,1.99853 68.5008,5.99828 20.6658,3.99975 41.3317,9.66854 61.8328,17.001l0 -62.6673c-16.6661,-8.16695 -37.1672,-14.5001 -61.5006,-19.3317 -24.5008,-4.66683 -50.6653,-7.00024 -78.6663,-7.00024 -33.1674,0 -64.3336,4.1672 -93.5013,12.6663 -29.165,8.49913 -54.3329,22.1674 -75.6658,40.9995 -21.1655,18.8348 -37.8342,43.5003 -50.0009,73.9995 -11.9993,30.3344 -17.9975,67.0019 -17.9975,110 0,42.3336 5.83083,79.0012 17.4979,110 11.8345,31.1662 27.3339,57.0012 46.833,77.8345 19.5018,20.8333 42.0014,36.5001 67.3341,46.833 25.3327,10.5004 51.8347,15.6668 79.5008,15.6668 25.9997,0 50.3331,-4.33464 72.8327,-13.0012 22.6671,-8.66658 42.3336,-22.1647 58.8323,-40.832 16.6688,-18.4999 29.6673,-42.5011 39.3358,-71.8335 9.4984,-29.3324 14.3327,-64.5011 14.3327,-105.501 0,-3.83231 0,-7.16498 0,-10.0007 0,-2.83304 -0.167444,-8.99877 -0.499631,-18.8321l-320.834 0c0,-29.4999 4.33194,-54.5003 13.3334,-75.1662 8.99877,-20.5011 21.1655,-37.3346 36.6648,-50.1684 15.5021,-12.6663 33.5023,-22 54.3356,-27.8335 20.8333,-5.83083 43.3329,-8.83132 67.4988,-8.83132z"
           id="path39" /></glyph><glyph
         unicode="ê"
         horiz-adv-x="497"
         id="glyph41"><path
           d="M291.999 718.997l102.502 -170.001 -68.3378 0 -71.8265 119.839 -1.84072 0 -71.3253 -119.839 -68.3378 0 102.502 170.001 76.6644 0zm-38.5008 -307.997c-17.6651,0 -33.8364,-3.49832 -48.9958,-10.3311 -15.0052,-6.83281 -28.1697,-15.9978 -39.3393,-27.8324 -11.1599,-11.6707 -20.3346,-25.5002 -27.3313,-41.3342 -6.83281,-15.6702 -11.1696,-32.5065 -12.8368,-50.4992l238.002 0c0,18.3301 -2.33222,35.3302 -7.16048,51.0003 -4.8379,15.834 -11.8345,29.6635 -21.173,41.3342 -9.16503,11.8249 -20.4984,20.9996 -34.1641,27.6589 -13.5018,6.66898 -29.1623,10.0035 -47.0009,10.0035zm39.5031 -357.002c24.999,0 47.8297,2.00455 68.5016,6.00401 20.6623,3.99946 41.3342,9.66617 61.8326,17.0001l0 -62.6711c-16.6724,-8.16275 -37.1709,-14.4944 -61.505,-19.3323 -24.4979,-4.66443 -50.663,-6.99665 -78.6593,-6.99665 -33.1714,0 -64.3383,4.16329 -93.5006,12.6634 -29.172,8.50006 -54.3348,22.1657 -75.6717,40.9969 -21.1634,18.8408 -37.8359,43.5026 -49.9981,74.0045 -11.9984,30.3381 -18.0024,66.9982 -18.0024,110 0,42.3365 5.83054,78.9966 17.5013,110 11.8345,31.1669 27.3313,57.0044 46.8371,77.8305 19.4962,20.8357 41.9992,36.5059 67.3259,46.8371 25.3363,10.5046 51.8388,15.6702 79.5073,15.6702 26.0013,0 50.3257,-4.33676 72.8287,-13.0007 22.6668,-8.67353 42.3365,-22.1657 58.8354,-40.833 16.6628,-18.5035 29.6635,-42.5003 39.3296,-71.8361 9.50233,-29.3358 14.3402,-64.5021 14.3402,-105.499 0,-3.83563 0,-7.17012 0,-10.0035 0,-2.83335 -0.173471,-9.0012 -0.501137,-18.8312l-320.834 0c0,-29.4996 4.32713,-54.4987 13.3283,-75.1706 9.0012,-20.4984 21.173,-37.3251 36.6698,-50.1619 15.4967,-12.6634 33.4991,-22.0019 54.3348,-27.8324 20.8357,-5.83054 43.3291,-8.83736 67.4993,-8.83736z"
           id="path43" /></glyph><glyph
         unicode="b"
         horiz-adv-x="535"
         id="glyph45"><path
           d="M409.998 233.665c0,36.8336 -4.32713,66.6705 -13.0007,89.665 -8.50006,23.0041 -19.66,40.833 -32.998,53.6699 -13.5018,12.8368 -27.9962,21.838 -43.1653,26.6663 -15.3329,4.8379 -30.6657,7.33395 -45.8348,7.33395 -23.4956,0 -45.4975,-4.8379 -66.1694,-14.6679 -20.6623,-9.83 -38.8285,-22.503 -54.8263,-37.9997l0 -242.83c4.5006,-6.16784 10.495,-13.0007 17.8289,-20.3346 7.33395,-7.33395 15.9978,-14.1668 26.0013,-20.4984 10.1673,-6.33168 21.5007,-11.6707 34.0002,-16.0075 12.4995,-4.49096 26.1651,-6.65934 41.1703,-6.65934 22.3295,0 42.163,4.32713 59.1631,13.1645 17.1639,8.83736 31.5042,21.3369 43.0014,37.3347 11.4972,16.1617 20.1611,35.3302 26.0013,57.6693 5.83054,22.3295 8.82772,46.8274 8.82772,73.4937zm79.0062 6.16784c0,-43.3291 -5.84018,-80.6638 -17.5013,-112.332 -11.8345,-31.5042 -27.1674,-57.6693 -46.4997,-78.3316 -19.1685,-20.6719 -41.1703,-36.0048 -65.8321,-45.9986 -24.6714,-10.1673 -50.3354,-15.169 -76.674,-15.169 -19.8335,0 -37.3347,2.49605 -52.4941,7.49778 -15.0052,5.00173 -28.0059,10.9961 -38.5008,18.0024 -10.6684,6.99665 -19.0047,14.0029 -25.3363,21.1634 -6.33168,7.17012 -10.8323,12.8368 -13.5018,17.1639l-1.49377 0 -16.0075 -51.8292 -57.1586 0 0 706.999 75.9994 0 0 -286.67 1.49377 0c16.499,17.5013 35.8409,31.3403 58.0066,41.0065 22.1657,9.83 47.3286,14.6679 75.4982,14.6679 13.0007,0 27.1674,-1.50341 42.3268,-4.33676 15.0052,-2.99719 30.0008,-7.99892 44.8421,-15.169 14.6583,-7.16048 28.9985,-16.6628 42.6641,-28.3335 13.6656,-11.6611 25.664,-26.329 35.9951,-43.6664 10.5046,-17.3278 18.6674,-37.9997 24.8352,-61.9965 6.16784,-23.8329 9.3385,-51.5015 9.3385,-82.6684z"
           id="path47" /></glyph><glyph
         unicode="s"
         horiz-adv-x="404"
         id="glyph49"><path
           d="M127.001 340.333c0,-12.6663 2.6656,-23.1667 8.16695,-31.1662 5.3312,-8.16695 12.6663,-14.8323 21.8325,-19.834 8.99877,-4.99901 19.4991,-9.16621 31.4984,-12.4989 12.002,-3.16793 24.3334,-6.16572 37.1672,-8.66658 17.5006,-3.99975 34.1667,-8.33439 49.6661,-13.0012 15.6668,-4.66683 30.1669,-11.8318 43.3356,-21.1655 13.3334,-9.5011 23.9985,-22.3349 32.1655,-38.3339 8.16695,-16.1665 12.1667,-36.9997 12.1667,-62.6673 0,-23.4989 -4.49938,-44.1647 -13.6656,-62.3324 -9.16621,-18.0002 -22,-33.1674 -38.6688,-45.3341 -16.6661,-12.1667 -36.4974,-21.5004 -59.6641,-27.8335 -23.1667,-6.33316 -48.6668,-9.4984 -76.3356,-9.4984 -16.9983,0 -32.3329,0.831819 -46.1659,2.6656 -14.0005,1.83378 -26.1672,3.99975 -36.8323,6.8328 -10.5004,2.6683 -19.5018,5.50135 -27.0017,8.33439 -7.49987,3.00049 -13.833,5.66609 -18.6646,8.33439l0 62.832c19.1642,-7.66732 38.3312,-13.833 57.1659,-18.3324 18.9995,-4.50208 39.8328,-6.66805 62.4998,-6.66805 18.0002,0 34.1667,1.66634 48.6668,4.83427 14.3327,3.33268 26.8343,8.16695 37.1672,14.5001 10.5004,6.50061 18.4999,14.5001 24.166,24.166 5.49865,9.5011 8.33439,20.8333 8.33439,33.4996 0,13.0012 -2.50086,23.8338 -7.66732,32.1682 -5.16646,8.49913 -12.002,15.4994 -20.6685,20.998 -8.66658,5.66879 -18.6646,10.1682 -29.9995,13.6683 -11.4996,3.66486 -23.3314,6.8328 -35.833,9.83329 -16.3339,3.50012 -33,7.83206 -49.8335,12.6663 -16.8335,4.83427 -32.0007,11.6671 -45.8337,20.5011 -13.833,8.83132 -24.9978,20.6658 -33.4996,35.833 -8.49913,15.1645 -12.6663,34.6663 -12.6663,58.3326 0,24.3334 4.33464,45.4989 13.166,63.4991 8.83402,17.8328 20.8333,32.6678 35.833,44.3349 15.0024,11.6671 32.3356,20.4984 52.3344,26.3319 19.834,5.83353 40.8347,8.83402 62.9995,8.83402 25.835,0 49.6688,-2.33341 71.6687,-7.16768 22.1647,-4.83157 41.9987,-11 59.999,-18.3324l0 -63.4991c-19.1669,7.16498 -38.5013,13.166 -58.0004,17.6653 -19.6666,4.66683 -39.8328,7.00024 -60.4986,7.33243 -17.5006,0 -32.5003,-1.83108 -45.0019,-5.3312 -12.3314,-3.66756 -22.6671,-8.66658 -30.4991,-14.9997 -7.9995,-6.33316 -13.833,-14.0005 -17.5006,-22.6671 -3.66486,-8.66658 -5.49865,-18.1677 -5.49865,-28.668z"
           id="path51" /></glyph><glyph
         unicode=","
         horiz-adv-x="263"
         id="glyph53"><path
           d="M91.0046 106l92.9995 0 -81.0011 -295.999 -92.9995 0 81.0011 295.999z"
           id="path55" /></glyph><glyph
         unicode="ç"
         horiz-adv-x="438"
         id="glyph57"><path
           d="M225.165 -7.99892c-25.3267,4.16329 -49.1693,12.1622 -70.9976,23.9968 -22.0019,11.6707 -40.9969,27.1674 -56.8309,46.4997 -16.0075,19.5058 -28.507,42.6738 -37.672,69.6677 -9.16503,27.0036 -13.6656,58.3343 -13.6656,93.8379 0,30.4923 3.17066,57.997 9.50233,82.4949 6.33168,24.3341 14.9956,45.8348 26.1651,64.5021 10.9961,18.5035 23.8329,34.3375 38.6647,47.3286 14.8317,13.0007 30.6657,23.6691 47.3382,32.0053 16.8266,8.33622 34.1641,14.3306 51.993,18.0024 18.0024,3.82599 35.3398,5.66671 52.3399,5.66671 22.4934,0 43.8302,-2.33222 64.1648,-7.00628 20.3346,-4.66443 37.9997,-11.1599 52.9953,-19.66l0 -62.3338c-20.8261,7.66162 -39.8308,13.4922 -57.1586,17.3278 -17.1736,3.83563 -34.6748,5.66671 -52.1665,5.66671 -19.5058,0 -38.5008,-3.16102 -56.6671,-9.32886 -18.1662,-6.16784 -34.6652,-16.3351 -49.3331,-30.5019 -14.6679,-14.1668 -26.5024,-32.998 -35.3398,-56.6671 -9.0012,-23.4956 -13.5018,-52.3303 -13.5018,-86.1667 0,-24.999 3.50796,-48.167 10.5046,-69.3304 6.99665,-21.173 17.5013,-39.5031 31.5042,-54.9998 13.8295,-15.3329 31.1669,-27.5047 52.1665,-36.0048 20.9996,-8.66389 45.1602,-13.0007 72.6649,-13.0007 19.4962,0 39.3296,2.00455 59.5004,6.00401 20.3346,3.99946 39.4935,9.66617 57.6597,17.0001l0 -62.9987c-5.16557,-3.33449 -11.8249,-6.50515 -19.9973,-9.50233 -7.99892,-3.17066 -17.3278,-5.83054 -27.6686,-8.16275 -10.3311,-2.16838 -21.5007,-4.17293 -33.3256,-5.84018 -11.8345,-1.66724 -23.6691,-2.49605 -35.6675,-2.83335l-14.5041 -49.3331c13.6656,-1.83108 26.3386,-4.82826 37.8359,-9.0012 11.4972,-3.99946 21.3272,-9.32886 29.6635,-15.834 8.17239,-6.49551 14.5041,-14.3306 19.0047,-23.6595 4.5006,-9.17467 6.65934,-19.8335 6.65934,-31.8318 0,-16.8363 -4.49096,-31.5042 -13.3283,-43.676 -9.0012,-12.1622 -20.8357,-22.1657 -35.8313,-30.1646 -14.8317,-7.99892 -30.6657,-13.8295 -47.3382,-17.5013 -16.6628,-3.82599 -33.8268,-5.66671 -51.328,-5.66671 -14.0029,0 -26.6663,0.838441 -37.8359,2.66952 -11.1696,1.83108 -20.3346,3.99946 -27.1674,6.50515l0 55.1636c3.99946,-1.32994 8.50006,-2.50569 13.5018,-3.49832 5.00173,-1.00227 10.1673,-1.84072 15.6605,-2.66952 5.33904,-0.828804 10.5046,-1.32994 15.5063,-1.66724 5.16557,-0.337304 9.50233,-0.501137 13.5018,-0.501137 9.49269,0 18.6674,0.501137 27.4951,1.66724 9.0012,1.16611 17.0001,3.33449 24.1702,6.33168 7.16048,3.17066 13.0007,7.17012 17.3278,12.1719 4.5006,5.16557 6.66898,11.4972 6.66898,19.3323 0,6.83281 -2.33222,12.6634 -6.83281,17.3278 -4.5006,4.67407 -10.9961,8.50006 -19.3323,11.5069 -8.16275,2.83335 -18.3301,5.00173 -30.1646,6.49551 -11.8345,1.50341 -25.1725,2.50569 -39.8404,3.17066l29.3358 96.999z"
           id="path59" /></glyph><glyph
         unicode="p"
         horiz-adv-x="530"
         id="glyph61"><path
           d="M405.001 236.166c0,27.0017 -2.83575,51.3324 -8.66658,72.8327 -5.66879,21.3356 -14.1679,39.668 -25.6675,54.8352 -11.4996,15.1645 -25.5001,26.8316 -42.1662,34.9985 -16.6688,8.16695 -36.0005,12.1667 -57.833,12.1667 -15.6668,0 -30.0022,-2.16597 -43.0007,-6.33316 -12.8338,-4.1672 -24.5008,-9.4984 -35.0012,-15.999 -10.5004,-6.50061 -19.4991,-13.5008 -26.999,-21.0007 -7.49987,-7.33243 -13.5008,-14.0005 -18.1677,-19.834l0 -242.667c16.0017,-16.3312 34.3341,-29.3324 54.6678,-38.8335 20.4984,-9.4984 42.4984,-14.3327 66,-14.3327 14.3327,0 29.6673,2.6683 45.6663,7.9995 15.999,5.50135 30.834,14.9997 44.3322,28.8355 13.5008,13.833 24.8357,32.6651 33.6671,56.4989 8.83402,23.6663 13.1687,54.0007 13.1687,90.833zm78.9985 1.16671c0,-32.1655 -3.16523,-60.666 -9.4984,-85.6665 -6.33587,-24.833 -14.835,-46.5008 -25.3354,-65.1654 -10.3329,-18.4999 -22.6671,-34.0019 -36.6648,-46.5008 -14.0005,-12.4989 -28.5006,-22.6671 -43.6678,-30.3344 -14.9997,-7.66462 -30.1669,-13.166 -45.6663,-16.4986 -15.4994,-3.50012 -30.1669,-5.16646 -43.8325,-5.16646 -28.5006,0 -53.1689,4.66683 -74.0022,13.833 -20.8333,9.33365 -39.6653,23.1667 -56.3314,41.3317l-1.50159 0 0 -270.166 -74.4991 0 0 691.001 57.1659 0 16.0017 -52.6665 1.49889 0c4.33194,6.49791 9.66584,12.8311 16.3339,18.9995 6.66535,6.16572 15.6668,12.6663 26.8316,19.6666 11.3349,7.00024 24.8357,12.9985 40.4998,18.165 15.8343,5.16916 33,7.83476 51.5025,7.83476 26.1645,0 51.165,-4.33464 75.4983,-13.166 24.166,-8.83402 45.6663,-22.8345 64.1662,-42.0014 18.4999,-19.1669 33.4996,-43.8325 44.667,-73.832 11.1674,-30.1669 16.8335,-66.667 16.8335,-109.668z"
           id="path63" /></glyph><glyph
         unicode="m"
         horiz-adv-x="828"
         id="glyph65"><path
           d="M452.999 0l-75.9994 0 0 298.331c0,20.1708 -2.16838,37.1709 -6.66898,51.3377 -4.32713,14.1668 -10.6684,25.8278 -18.995,35.0025 -8.33622,9.16503 -18.3397,15.8244 -29.8369,19.9973 -11.6611,4.16329 -24.4979,6.33168 -39.002,6.33168 -26.9939,0 -51.6653,-7.17012 -73.831,-21.6645 -22.1657,-14.5041 -41.9992,-34.3375 -59.6642,-59.6642l0 -329.671 -75.9994 0 0 463.995 58.8354 0 14.6583 -64.4925 1.50341 0c8.50006,10.8323 17.6651,20.6623 27.6686,30.0008 9.83,9.16503 20.9996,17.3278 33.1618,24.3341 12.3357,6.99665 25.8375,12.4995 40.5054,16.3255 14.6679,3.83563 30.6657,5.84018 47.9935,5.84018 34.5014,0 63.336,-8.33622 86.1667,-24.8352 22.8403,-16.6724 40.5054,-39.1658 52.8411,-67.8366l1.99491 0c20.4984,28.9985 44.0037,51.6653 70.3327,68.0005 26.3386,16.499 57.0044,24.6714 92.1707,24.6714 16.3351,0 33.4991,-2.33222 51.6653,-6.83281 18.3301,-4.5006 35.0025,-13.0007 50.3354,-25.1725 15.3329,-12.1622 27.9962,-28.9985 37.9997,-50.4992 10.1673,-21.5007 15.169,-49.1693 15.169,-82.996l0 -310.503 -75.9994 0 0 298.331c0,20.1708 -2.16838,37.1709 -6.50515,51.3377 -4.5006,14.1668 -10.8323,25.8278 -18.995,35.0025 -8.33622,9.16503 -18.1759,15.8244 -29.6731,19.9973 -11.4972,4.16329 -24.3341,6.33168 -38.6647,6.33168 -26.8301,0 -51.5015,-7.17012 -73.6672,-21.6645 -22.1657,-14.5041 -41.9992,-34.3375 -59.5004,-59.6642l0 -329.671z"
           id="path67" /></glyph><glyph
         unicode=" "
         horiz-adv-x="200"
         id="glyph69" /><glyph
         unicode="u"
         horiz-adv-x="517"
         id="glyph71"><path
           d="M257.498 -11.9984c-24.1606,0 -45.8348,2.66952 -65.1671,7.83509 -19.1685,5.16557 -36.1686,12.4995 -50.663,21.9922 -14.5041,9.3385 -26.8301,20.6719 -36.9974,33.8364 -10.0035,13.1645 -18.0024,27.6686 -24.0064,43.3387 -4.5006,11.6611 -7.83509,24.4979 -9.66617,38.4912 -1.99491,14.0029 -2.99719,29.3358 -2.99719,45.8348l0 284.665 75.9994 0 0 -284.492c0,-25.6736 3.49832,-47.1744 10.3311,-64.5021 7.83509,-19.5058 20.3346,-34.8387 37.8359,-46.1721 17.5013,-11.1599 39.8308,-16.8266 66.8344,-16.8266 28.6612,0 51.8292,6.16784 69.1666,18.4939 17.5013,12.4995 30.0008,29.0081 37.4986,50.0077 5.50287,15.8244 8.33622,35.6578 8.33622,58.9993l0 284.492 75.9994 0 0 -285.166c0,-15.4967 -0.838441,-30.1646 -2.66952,-43.6664 -1.83108,-13.4922 -4.66443,-25.9917 -8.66389,-37.3251 -5.83054,-16.0075 -13.8391,-30.6754 -24.1702,-44.1675 -10.3311,-13.5018 -22.9945,-25.1725 -37.9997,-34.8387 -14.9956,-9.83 -32.333,-17.3278 -52.1665,-22.8307 -19.6696,-5.3294 -41.9992,-7.99892 -66.8344,-7.99892z"
           id="path73" /></glyph><glyph
         unicode="d"
         horiz-adv-x="535"
         id="glyph75"><path
           d="M125 226.833c0,-26.6668 3.00049,-50.8328 9.00147,-72.5006 6.16572,-21.6651 14.8323,-39.9975 26.1645,-55.1647 11.5023,-15.1672 25.5001,-26.8343 42.1689,-35.0012 16.6661,-8.16695 35.833,-12.1667 57.3334,-12.1667 15.999,0 30.4991,2.16597 43.4976,6.33316 13.0012,4.33464 24.6683,9.66854 35.0012,16.1665 10.3329,6.50061 19.1669,13.3334 26.4994,20.6685 7.33513,7.33243 13.166,14.1652 17.3332,20.3336l0 242.832c-15.6668,15.8343 -33.8318,28.668 -54.3329,38.3339 -20.4984,9.5011 -42.6658,14.3327 -66.4996,14.3327 -14.5001,0 -29.4999,-2.6656 -45.3341,-7.9995 -15.8316,-5.49865 -30.4991,-15.1672 -44,-29.1677 -13.6656,-13.9978 -24.833,-32.8325 -33.6671,-56.3314 -8.83132,-23.6663 -13.166,-53.8333 -13.166,-90.6682zm-78.9985 -0.667075c0,32.1682 3.16523,60.6687 9.4984,85.6665 6.33316,24.8357 14.835,46.5008 25.1679,65.1681 10.5004,18.4999 22.6671,33.9992 36.6648,46.5008 14.1679,12.4989 28.668,22.6644 43.6678,30.4991 14.9997,7.83206 30.1669,13.5008 45.6663,16.8335 15.4994,3.50012 29.9995,5.16646 43.8325,5.16646 28.3331,0 53.0014,-4.66683 73.8347,-14.1679 20.8333,-9.4984 39.5006,-23.3314 56.1667,-41.4991l1.49889 0 0 286.667 76.0007 0 0 -707 -57.3334 0 -15.6668 51.832 -1.99853 0c-5.83353,-7.49987 -12.8338,-15.1645 -20.5011,-22.8318 -7.83476,-7.66732 -17.1657,-14.5001 -27.6661,-20.6658 -10.6678,-6.16842 -22.8345,-11.1674 -36.6675,-14.835 -13.833,-3.66486 -29.9995,-5.49865 -48.1672,-5.49865 -25.5001,0 -50.5006,4.33194 -74.834,12.9985 -24.4981,8.50184 -46.3307,22.3349 -65.3329,41.3344 -18.9995,19.1669 -34.4989,43.6651 -46.1659,73.832 -11.8345,30.0022 -17.6653,66.667 -17.6653,110z"
           id="path77" /></glyph><glyph
         unicode="S"
         horiz-adv-x="551"
         id="glyph79"><path
           d="M147 480.834c0,-19.1669 3.83501,-35.0012 11.6671,-47.5001 7.83206,-12.6663 18.1677,-23.0019 31.3336,-31.1689 13.166,-7.9995 28.3331,-14.8323 45.6663,-19.9988 17.3332,-5.16646 35.5008,-10.0007 54.1654,-14.6676 25.3354,-6.16572 50.1684,-12.9985 74.6692,-20.4984 24.4981,-7.49987 46.1659,-17.8328 65.3329,-31.0015 19.1669,-13.166 34.6663,-30.3317 46.4981,-51.4998 11.8345,-21.1655 17.668,-48.3319 17.668,-81.6668 0,-33.8318 -6.33316,-62.9995 -19.1669,-87.665 -12.8338,-24.5008 -30.6666,-44.667 -53.3336,-60.5013 -22.6671,-15.8343 -49.3339,-27.4986 -80.3326,-35.1659 -31.0015,-7.66732 -64.8332,-11.4996 -101.501,-11.4996 -17.001,0 -34.3341,0.999263 -51.9995,3.16523 -17.8328,2.16867 -34.6663,5.00171 -50.8328,8.50184 -16.1665,3.50012 -30.6666,7.66462 -43.6678,12.1667 -12.9985,4.49938 -23.3341,9.16621 -30.834,13.6656l0 72.5006c11.6671,-5.83353 24.833,-11 39.5006,-15.8343 14.6676,-4.83427 29.8347,-8.99877 45.5016,-12.3341 15.6641,-3.33268 31.3309,-5.99828 47.3326,-7.9995 15.999,-1.83378 30.9987,-2.83304 44.9992,-2.83304 22.6671,0 44.4996,2.00123 65.1681,5.83353 20.6658,3.99975 38.8308,10.5004 54.3329,19.4991 15.6668,9.16891 27.9983,21.6678 37.1672,37.3346 9.16621,15.8343 13.6656,35.5008 13.6656,59.3319 0,19.5018 -3.99975,35.6683 -11.9993,48.3346 -7.83476,12.6663 -18.4999,23.1667 -31.8333,31.5011 -13.3334,8.33169 -28.668,14.9997 -46.0012,20.3309 -17.5006,5.16916 -35.6656,10.0007 -54.8325,14.5001 -25.5001,6.00098 -50.1684,12.5016 -74.3343,19.834 -24.3334,7.33243 -45.8337,17.5006 -64.8332,30.4991 -18.9995,13.0012 -34.3341,29.8347 -45.8337,50.3358 -11.4996,20.4984 -17.3332,46.833 -17.3332,78.6663 0,33.1647 6.00098,61.8328 18.1677,85.6665 12.1667,23.9985 28.6653,43.8325 49.3339,59.4993 20.8333,15.4994 44.6643,27.1664 71.666,34.6663 26.999,7.49987 55.8318,11.1674 86.4983,11.1674 34.8338,0 67.1667,-3.33268 97.3336,-10.0007 30.1669,-6.66535 57.6683,-15.4994 82.8335,-26.1672l0 -73.832c-26.999,11.3322 -55,20.6658 -83.8327,27.8335 -28.8328,7.16498 -59.6668,10.8325 -92.4993,11.1647 -24.6683,0 -46.1659,-2.6656 -64.5011,-7.9995 -18.165,-5.3339 -33.3322,-12.9985 -45.3314,-22.9992 -12.002,-9.83329 -21.0007,-21.8325 -26.8343,-36.0005 -5.83353,-14.1652 -8.83402,-29.832 -8.83402,-47.1652z"
           id="path81" /></glyph><glyph
         unicode="."
         horiz-adv-x="264"
         id="glyph83"><path
           d="M85.0006 0l0 95.004 92.9995 0 0 -95.004 -92.9995 0z"
           id="path85" /></glyph><glyph
         unicode="r"
         horiz-adv-x="334"
         id="glyph87"><path
           d="M327.666 402.001l-5.83353 0c-17.8328,0 -35.4981,-1.66634 -52.6665,-4.83427 -17.3332,-3.33268 -33.4996,-8.33439 -48.6668,-14.9997 -15.1672,-6.66535 -28.8328,-14.8323 -40.9995,-24.5008 -12.1667,-9.83329 -22.3322,-21.3329 -30.4991,-34.6663l0 -323 -76.0007 0 0 464.001 58.8323 0 14.6676 -73.6673 1.49889 0c7.49987,11.9993 16.6688,23.1667 27.6688,33.4996 10.8325,10.5004 23.1667,19.4991 36.8323,27.3339 13.6656,7.83206 28.668,13.833 44.8345,18.3324 16.3312,4.33464 33.4996,6.50061 51.3324,6.50061 3.33268,0 6.66535,0 10.0007,-0.167444 3.50012,-0.164743 6.49791,-0.499631 8.99877,-0.831819l0 -73.0002z"
           id="path89" /></glyph><glyph
         unicode="a"
         horiz-adv-x="489"
         id="glyph91"><path
           d="M345 51.3324l-1.83378 0c-6.33316,-7.83206 -14.1652,-15.6668 -23.4989,-23.3314 -9.5011,-7.49987 -20.5011,-14.3354 -32.8325,-20.3336 -12.5016,-6.16842 -25.9997,-10.8352 -40.6673,-14.3327 -14.6676,-3.50012 -30.3344,-5.3339 -47.0005,-5.3339 -22.4996,0 -43.1654,3.33268 -61.8328,9.99803 -18.8348,6.66805 -35.0012,16.5013 -48.4994,29.3351 -13.5008,12.8338 -24.0012,28.5006 -31.5011,47.0005 -7.49987,18.4999 -11.3322,39.4979 -11.3322,62.832 0,23.1667 4.16449,43.8325 12.4989,62.0002 8.33439,18.1677 19.9988,33.6671 35.0012,46.3334 14.9997,12.6663 33,22.4996 53.998,29.3324 21.0007,6.8355 44.3349,10.1682 69.6675,10.1682 24.166,-0.334888 46.5008,-2.50086 67.1667,-6.33316 20.5011,-3.83501 38.6661,-8.83402 54.6678,-14.6676l1.99853 0 0 32.1682c0,12.8311 -0.831819,23.9985 -2.50086,33.8318 -1.49889,9.66584 -4.33194,18.3324 -8.16425,25.8323 -8.50184,15.6668 -22,28.5006 -40.6673,38.8335 -18.4999,10.1682 -43.5003,15.3346 -75.1662,15.3346 -23.3341,0 -45.5016,-2.16597 -66.1674,-6.33316 -20.6658,-4.33464 -41.1669,-10.1682 -61.668,-17.668l0 62.8347c7.66732,3.99975 17.001,7.49987 27.5013,11 10.6651,3.33268 21.8325,6.33316 33.4996,8.66658 11.6671,2.50086 24.0012,4.33194 37.1672,5.49865 12.9985,1.33415 25.9997,2.00123 38.9983,2.00123 46.8357,0 85.1669,-8.33439 115.002,-24.833 29.832,-16.6661 51.3324,-38.6661 64.4984,-66 4.83427,-10.3329 8.33439,-21.8325 10.5004,-34.3341 2.16867,-12.4989 3.16793,-26.3319 3.16793,-41.3344l0 -309.499 -63.6665 0 -8.33439 51.3324zm-3.99975 152.501c-14.0005,3.99975 -30.4991,7.66732 -49.6661,11.3322 -19.1669,3.50012 -40.3324,5.50135 -63.4991,5.83353 -32.1682,0 -57.3334,-6.8328 -75.501,-20.4984 -18.1677,-13.833 -27.3339,-34.8338 -27.3339,-63.3344 0,-14.3327 2.33341,-26.8343 6.8328,-37.6668 4.50208,-10.8325 10.8352,-19.6666 18.8348,-26.6668 7.83206,-7.00024 17.3332,-12.3314 28.1657,-15.6668 11,-3.50012 22.4996,-5.16646 34.8338,-5.16646 16.3339,0 31.5011,2.33341 45.4989,7.16768 13.8357,4.66683 26.3346,10.3329 37.1672,16.8335 11,6.50061 20.1662,12.9985 27.8335,19.6666 7.66732,6.50061 13.3334,11.4996 16.8335,15.1672l0 92.9989z"
           id="path93" /></glyph><glyph
         unicode="o"
         horiz-adv-x="533"
         id="glyph95"><path
           d="M408.003 231.496c0,28.6708 -3.49832,54.171 -10.5046,76.5005 -6.99665,22.3392 -16.8363,41.3342 -29.3358,56.8405 -12.6634,15.4967 -27.4951,27.1578 -44.8325,35.1663 -17.3278,7.99892 -36.3324,11.9984 -56.8309,11.9984 -20.4984,0 -39.5031,-3.99946 -56.8309,-11.9984 -17.3374,-8.00856 -32.1692,-19.6696 -44.8325,-35.1663 -12.4995,-15.5063 -22.3392,-34.5014 -29.3358,-56.8405 -6.99665,-22.3295 -10.5046,-47.8297 -10.5046,-76.5005 0,-28.3335 3.50796,-53.6602 10.5046,-75.9994 6.99665,-22.3295 16.8363,-41.1607 29.6635,-56.4936 12.673,-15.3329 27.6686,-27.0036 45.006,-35.0025 17.3278,-7.99892 36.3324,-11.9984 56.8309,-11.9984 20.4984,0 39.3296,3.99946 56.5032,11.9984 17.1639,7.99892 31.9957,19.6696 44.659,35.0025 12.4995,15.3329 22.3392,34.1641 29.3358,56.4936 7.00628,22.3392 10.5046,47.6659 10.5046,75.9994zm78.9966 0c0,-36.4963 -5.16557,-69.6677 -15.6702,-99.495 -10.3311,-30.0008 -25.1629,-55.6648 -44.1579,-76.8378 -19.1685,-21.3272 -42.1726,-37.8262 -69.1666,-49.6608 -27.1674,-11.6707 -57.5055,-17.5013 -91.0046,-17.5013 -34.5014,0 -65.5044,5.83054 -92.6622,17.5013 -27.1674,11.8345 -50.3354,28.3335 -69.5039,49.6608 -19.0047,21.173 -33.4991,46.8371 -43.6664,76.8378 -10.1673,29.8273 -15.169,62.9987 -15.169,99.495 0,36.8336 5.16557,70.1688 15.6702,100.006 10.3311,30.0008 25.1629,55.6648 44.1675,77.1655 19.1589,21.5007 42.3268,37.9997 69.4942,49.8342 27.1674,11.6611 57.6693,17.5013 91.1684,17.5013 34.1641,0 65.0033,-5.84018 92.3345,-17.5013 27.4951,-11.8345 50.663,-28.3335 69.5039,-49.8342 18.8312,-21.5007 33.3256,-47.1647 43.4929,-77.1655 10.1673,-29.8369 15.169,-63.1722 15.169,-100.006z"
           id="path97" /></glyph><glyph
         unicode="M"
         horiz-adv-x="821"
         id="glyph99"><path
           d="M429.335 0l-36.6675 0 -164.333 389.999c-22.6671,53.6685 -45.5016,112.001 -68.3334,175.168l-3.83501 0c4.50208,-90.833 6.8328,-174.001 6.8328,-249.332l0 -315.835 -79.9977 0 0 652.999 114.831 0 153.835 -369.5c17.4979,-42.1662 36.9997,-93.1664 58.1652,-152.666l2.33341 0c23.5016,66 42.8333,117 58.1679,152.666l153.832 369.5 114.834 0 0 -652.999 -80.0004 0 0 315.835c0,73.832 2.33341,156.998 6.8328,249.332l-3.83231 0c-24.1687,-66.667 -46.833,-125.167 -68.3334,-175.168l-164.333 -389.999z"
           id="path101" /></glyph><glyph
         unicode="ã"
         horiz-adv-x="489"
         id="glyph103"><path
           d="M345.004 51.3377l-1.84072 0c-6.33168,-7.83509 -14.1668,-15.6702 -23.4956,-23.3414 -9.50233,-7.49778 -20.4984,-14.3306 -32.8341,-20.325 -12.4995,-6.16784 -26.0013,-10.8419 -40.6692,-14.3402 -14.6679,-3.49832 -30.3284,-5.3294 -47.0009,-5.3294 -22.4934,0 -43.1653,3.33449 -61.8326,9.99383 -18.8312,6.66898 -34.9929,16.5086 -48.4947,29.3358 -13.5018,12.8368 -24.0064,28.4974 -31.5042,47.0009 -7.49778,18.5035 -11.3334,39.5031 -11.3334,62.8349 0,23.168 4.16329,43.8302 12.4995,61.9965 8.33622,18.1662 19.9973,33.6726 35.0025,46.3359 14.9956,12.6634 32.998,22.503 53.9975,29.3358 20.9996,6.83281 44.3314,10.1673 69.6677,10.1673 24.1702,-0.337304 46.4997,-2.50569 67.1717,-6.33168 20.4984,-3.83563 38.6647,-8.83736 54.6625,-14.6679l2.00455 0 0 32.1595c0,12.8368 -0.838441,24.0064 -2.50569,33.8364 -1.50341,9.66617 -4.33676,18.3301 -8.16275,25.8375 -8.50006,15.6605 -22.0019,28.4974 -40.6692,38.8285 -18.5035,10.1673 -43.5026,15.3329 -75.1706,15.3329 -23.3318,0 -45.4975,-2.16838 -66.1597,-6.33168 -20.6719,-4.33676 -41.1703,-10.1673 -61.6688,-17.6651l0 62.8349c7.66162,3.99946 17.0001,7.49778 27.4951,10.9961 10.6684,3.33449 21.838,6.33168 33.4991,8.66389 11.6707,2.50569 24.0064,4.33676 37.1709,5.50287 13.0007,1.32994 26.0013,2.00455 39.002,2.00455 46.8274,0 85.1644,-8.33622 115.001,-24.8352 29.8273,-16.6724 51.328,-38.6647 64.4925,-66.0056 4.8379,-10.3311 8.33622,-21.8284 10.5046,-34.3279 2.16838,-12.4995 3.17066,-26.3386 3.17066,-41.3342l0 -309.5 -63.6733 0 -8.32659 51.3377zm-3.99946 152.5c-14.0029,3.99946 -30.5019,7.66162 -49.6704,11.3334 -19.1685,3.49832 -40.3319,5.49323 -63.4999,5.83054 -32.1692,0 -57.332,-6.83281 -75.4982,-20.4984 -18.1662,-13.8391 -27.3409,-34.8387 -27.3409,-63.336 0,-14.3306 2.34185,-26.8301 6.84245,-37.6624 4.49096,-10.8419 10.8323,-19.6696 18.8312,-26.6759 7.83509,-6.99665 17.3278,-12.326 28.1601,-15.6605 11.0057,-3.49832 22.503,-5.16557 34.8387,-5.16557 16.3351,0 31.4945,2.33222 45.4975,7.16048 13.8391,4.67407 26.3386,10.3408 37.1709,16.8363 10.9961,6.50515 20.1611,13.0007 27.8324,19.6696 7.66162,6.49551 13.3283,11.4972 16.8363,15.169l0 92.9995zm-256.004 371.16l0 11.1696c0,10.9961 1.32994,22.0019 3.66216,32.8341 2.50569,10.8323 6.83281,20.6623 13.1741,29.6635 6.33168,8.83736 14.9956,15.9978 25.664,21.3369 10.8323,5.3294 23.9968,7.99892 39.5031,7.99892 13.4922,0 26.4928,-2.33222 39.1658,-6.99665 12.6634,-4.67407 24.3341,-10.0035 35.1663,-15.834 10.6684,-5.66671 21.1634,-11.0057 31.4945,-15.834 10.1673,-4.8379 19.1685,-7.33395 27.0036,-7.33395 10.1673,0 17.5013,3.49832 22.3295,10.6684 4.67407,6.99665 7.00628,17.5013 7.00628,31.4945l59.6642 0 0 -11.3334c0,-10.9961 -1.32994,-21.8284 -3.67179,-32.6607 -2.49605,-11.0057 -6.83281,-20.8357 -13.3283,-29.6731 -6.33168,-9.0012 -14.8317,-16.1617 -25.5002,-21.5007 -10.8323,-5.3294 -23.9968,-7.99892 -39.6669,-7.99892 -13.338,0 -26.329,2.33222 -39.002,7.00628 -12.6634,4.66443 -24.3341,9.99383 -35.1663,15.834 -10.6684,5.66671 -21.1634,10.9961 -31.4945,15.8244 -10.1673,4.8379 -19.342,7.33395 -27.1674,7.33395 -10.0035,0 -17.3374,-3.49832 -22.1657,-10.6588 -4.67407,-7.00628 -7.00628,-17.5013 -7.00628,-31.3403l-59.6642 0z"
           id="path105" /></glyph><glyph
         unicode="i"
         horiz-adv-x="231"
         id="glyph107"><path
           d="M77.9992 0l0 464.001 76.0007 0 0 -464.001 -76.0007 0zm-1.99853 572l0 84.0002 75.998 0 0 -84.0002 -75.998 0z"
           id="path109" /></glyph></font>
</defs>
</svg>
